找回密碼
 注冊

QQ登錄

只需一步,快速開始

索尼 BRAVIA OLED A1 4K HDR 演示片 - 打造刀劍的鐵匠 (HEVC 60fps 10bit)[2160P/M...

3190
回復
449652
查看
  [復制鏈接]
1#
來源:4K視頻下載 2017-10-3 21:06:20 回帖獎勵 |閱讀模式
索尼 BRAVIA OLED A1 4K HDR 演示片 - 打造刀劍的鐵匠 (HEVC 60fps 10bit)[2160P/MP4/735MB](OLED電視專用4K演示片)
索尼 BRAVIA OLED A1 4K HDR 演示片 - 打造刀劍的鐵匠 (HEVC 60fps 10bit)[2160P/M... 索尼 BRAVIA OLED A1 4K HDR 演示片 - 打造刀劍的鐵匠 (HEVC 60fps 10bit)[2160P/M... 索尼 BRAVIA OLED A1 4K HDR 演示片 - 打造刀劍的鐵匠 (HEVC 60fps 10bit)[2160P/M... 索尼 BRAVIA OLED A1 4K HDR 演示片 - 打造刀劍的鐵匠 (HEVC 60fps 10bit)[2160P/M... 索尼 BRAVIA OLED A1 4K HDR 演示片 - 打造刀劍的鐵匠 (HEVC 60fps 10bit)[2160P/M... 索尼 BRAVIA OLED A1 4K HDR 演示片 - 打造刀劍的鐵匠 (HEVC 60fps 10bit)[2160P/M... 索尼 BRAVIA OLED A1 4K HDR 演示片 - 打造刀劍的鐵匠 (HEVC 60fps 10bit)[2160P/M... 索尼 BRAVIA OLED A1 4K HDR 演示片 - 打造刀劍的鐵匠 (HEVC 60fps 10bit)[2160P/M... 索尼 BRAVIA OLED A1 4K HDR 演示片 - 打造刀劍的鐵匠 (HEVC 60fps 10bit)[2160P/M...

General
Complete name : SONY.BRAVIA.OLED.4K.HDR.DEMO_Swordsmith.mp4
Format : MPEG-4
Format profile : Base Media
Codec ID : isom (isom)
File size : 735 MiB
Duration : 1 min 26 s
Overall bit rate mode : Variable
Overall bit rate : 71.6 Mbps
Encoded date : UTC 2016-10-24 05:33:14
Tagged date : UTC 2016-10-24 05:33:14

Video
ID : 1
Format : HEVC
Format/Info : High Efficiency Video Coding
Format profile : Main [email protected]@High
Codec ID : hvc1
Codec ID/Info : High Efficiency Video Coding
Duration : 1 min 26 s
Bit rate : 71.4 Mbps
Maximum bit rate : 114 Mbps
Width : 3840 pixels
Height : 2160 pixels
Display aspect ratio : 16:9
Frame rate mode : Constant
Frame rate : 59.940 (60000/1001) FPS
Color space : YUV
Chroma subsampling : 4:2:0 (Type 2)
Bit depth : 10 bits
Bits/(Pixel*Frame) : 0.144
Stream size : 733 MiB (100%)
Encoded date : UTC 2016-10-24 06:29:51
Tagged date : UTC 2016-10-24 05:33:22
Color range : Limited
Color primaries : BT.2020
Transfer characteristics : SMPTE ST 2084
Matrix coefficients : BT.2020 non-constant
Mastering display color primar : R: x=1.000000 y=1.000000, G: x=1.000000 y=1.000000, B: x=1.000000 y=1.000000, White point: x=1.000000 y=1.000000
Mastering display luminance : min: 0.1000 cd/m2, max: 0.5000 cd/m2

Audio
ID : 2
Format : AAC
Format/Info : Advanced Audio Codec
Format profile : LC
Codec ID : 40
Duration : 1 min 26 s
Source duration : 1 min 26 s
Bit rate mode : Variable
Bit rate : 192 kbps
Maximum bit rate : 197 kbps
Channel(s) : 2 channels
Channel positions : Front: L R
Sampling rate : 48.0 kHz
Frame rate : 46.875 FPS (1024 SPF)
Compression mode : Lossy
Stream size : 1.97 MiB (0%)
Source stream size : 1.97 MiB (0%)
Language : English
Encoded date : UTC 2016-10-24 06:29:51
Tagged date : UTC 2016-10-24 05:33:22
Demo Ultra HD & HDR (HDR10)by Sony(for Sony OLED A1 Demo)
HDR ! So your TV has to be able to play this format !
OLED
4K HDR電視上觀看才能體驗最佳效果!
PC播放器 : Potplaye(2017版本)

MP4百度云盤
游客,如果您要查看本帖隱藏內容請回復


分享到:  QQ好友和群QQ好友和群
2#
2017-10-3 21:13:15
不錯,大力支持!
TV應用下載
3#
2017-10-3 21:55:32
這個的黑色畫面挺好的,演示不錯
4#
2017-10-3 21:58:20
真是難得給力的資源啊。
5#
2017-10-3 22:01:29
好的,我來試試。
6#
2017-10-3 22:05:35

不錯,大力支持!
7#
2017-10-3 22:06:02
thx so much
8#
2017-10-3 22:08:48
果斷馬克mark
9#
2017-10-3 22:09:41
又是漲姿勢了
10#
2017-10-3 22:11:06
真是難得給力的資源啊。
您需要登錄后才可以回帖 登錄 | 注冊
當貝
3d试机号今天开机号表