找回密碼
 注冊

QQ登錄

只需一步,快速開始

LG 4K HDR 演示片 - 杜比比較(HEVC 10bit) [2160P/TS/294MB]

4945
回復
352223
查看
  [復制鏈接]
1#
來源:4K視頻下載 2017-2-5 20:16:35 回帖獎勵 |閱讀模式
LG 4K HDR 演示片 - 杜比比較(HEVC 10bit) [2160P/TS/294MB]
LG 4K HDR 演示片 - 杜比比較(HEVC 10bit) [2160P/TS/294MB] LG 4K HDR 演示片 - 杜比比較(HEVC 10bit) [2160P/TS/294MB] LG 4K HDR 演示片 - 杜比比較(HEVC 10bit) [2160P/TS/294MB] LG 4K HDR 演示片 - 杜比比較(HEVC 10bit) [2160P/TS/294MB] LG 4K HDR 演示片 - 杜比比較(HEVC 10bit) [2160P/TS/294MB] LG 4K HDR 演示片 - 杜比比較(HEVC 10bit) [2160P/TS/294MB] LG 4K HDR 演示片 - 杜比比較(HEVC 10bit) [2160P/TS/294MB] LG 4K HDR 演示片 - 杜比比較(HEVC 10bit) [2160P/TS/294MB] LG 4K HDR 演示片 - 杜比比較(HEVC 10bit) [2160P/TS/294MB]

General
ID : 1 (0x1)
Complete name : LG.HDR.4K.DEMO_Dolby.Comparison-OLED.ts
Format : MPEG-TS
File size : 294 MiB
Duration : 1 min 15 s
Overall bit rate mode : Constant
Overall bit rate : 32.7 Mbps

Video
ID : 33 (0x21)
Menu ID : 2 (0x2)
Format : HEVC
Format/Info : High Efficiency Video Coding
Format profile : Main [email protected]@Main
Codec ID : 36
Duration : 1 min 14 s
Bit rate : 30.3 Mbps
Width : 3840 pixels
Height : 2160 pixels
Display aspect ratio : 16:9
Frame rate : 23.976 (24000/1001) FPS
Color space : YUV
Chroma subsampling : 4:2:0
Bit depth : 10 bits
Bits/(Pixel*Frame) : 0.152
Stream size : 269 MiB (92%)

Audio
ID : 35 (0x23)
Menu ID : 2 (0x2)
Format : E-AC-3
Format/Info : Enhanced Audio Coding 3
Format settings, Endianness : Big
Codec ID : 135
Duration : 1 min 15 s
Bit rate mode : Constant
Bit rate : 768 kbps
Channel(s) : 6 channels
Channel positions : Front: L C R, Side: L R, LFE
Sampling rate : 48.0 kHz
Frame rate : 187.500 FPS (256 spf)
Compression mode : Lossy
Delay relative to video : -948 ms
Stream size : 6.91 MiB (2%)
HDR ! So your TV has to be able to play this format !
HDR系統截圖只供視頻內容參考
真真的畫質和色彩只有在HDR電視上觀看才能體驗最佳效果!
播放器 : Potplaye/MPC-HC


TS百度云盤

游客,如果您要查看本帖隱藏內容請回復



分享到:  QQ好友和群QQ好友和群
2#
2017-2-5 20:18:48
號頻率哦哦哦
TV應用下載
3#
2017-2-5 20:40:39
不錯,大力支持!
4#
2017-2-5 20:41:35
謝謝分享,體驗下
5#
2017-2-5 20:42:28
謝謝樓主分享
6#
2017-2-5 20:46:02
新手前來學習4K
7#
2017-2-5 20:49:22
試試效果
8#
2017-2-5 20:52:50
大力支持
9#
2017-2-5 20:54:45
真是難得給力的資源啊。
10#
2017-2-5 20:55:00
支持樓主,4K123有你更精彩!
您需要登錄后才可以回帖 登錄 | 注冊
當貝
3d试机号今天开机号表