找回密碼
 注冊

QQ登錄

只需一步,快速開始

[4K足球賽]2016年法國歐洲杯半決賽(2016-07-07)[2160P/MKV/18.1GB]

977
回復
138785
查看
[復制鏈接]
1#
來源:4K視頻下載 2016-7-8 05:14:46 回帖獎勵 |閱讀模式
[4K足球賽]2016年法國歐洲杯半決賽(2016-07-07)
[2160P/MKV/18.1GB]+[2160P/TS/33.60GB]
(德國 VS 法國 Germany vs France)(1小時43分鐘全場)
[4K足球賽]2016年法國歐洲杯半決賽(2016-07-07)[2160P/MKV/18.1GB]
General
Unique ID : 171100334810496064382214757464721159999(0x80B8B9D0091E424690B30EA7ACC9773F)
Complete name : Germany-France.2160p.07.07.2016-Nikolay.mkv
Format : Matroska
Format version : Version 4 / Version 2
File size : 18.1 GiB
Duration : 1h 43mn
Overall bit rate : 25.1 Mbps
Encoded date : UTC 2016-07-07 20:54:39
Writing application : mkvmerge v8.3.0 ('Over the Horizon') 64bit
Writing library : libebml v1.3.1 + libmatroska v1.4.2

Video
ID : 1
Format : HEVC
Format/Info : High Efficiency Video Coding
Codec ID : V_MPEGH/ISO/HEVC
Duration : 1h 43mn
Bit rate : 25.0 Mbps
Width : 3840 pixels
Height : 2160 pixels
Display aspect ratio : 16:9
Frame rate mode : Constant
Frame rate : 50.000 fps
Color space : YUV
Bit depth : 10 bits
Bits/(Pixel*Frame) : 0.060
Stream size : 18.0 GiB (100%)
Default : Yes
Forced : No

Audio
ID : 2
Format : AAC
Format/Info : Advanced Audio Codec
Mode extension : HE-AAC / LC
Codec ID : A_AAC
Duration : 1h 43mn
Bit rate : 78.7 Kbps  
Channel(s) : 2 channels
Channel positions : Front: L R
Sampling rate : 48.0 KHz / 24.0 KHz
Frame rate : 23.438 fps (1024 spf)
Compression mode : Lossy
Stream size : 58.1 MiB (0%)
Default : Yes
Forced : No

[4K足球賽]2016年法國歐洲杯半決賽(2016-07-07)[2160P/MKV/18.1GB] [4K足球賽]2016年法國歐洲杯半決賽(2016-07-07)[2160P/MKV/18.1GB] [4K足球賽]2016年法國歐洲杯半決賽(2016-07-07)[2160P/MKV/18.1GB] [4K足球賽]2016年法國歐洲杯半決賽(2016-07-07)[2160P/MKV/18.1GB] [4K足球賽]2016年法國歐洲杯半決賽(2016-07-07)[2160P/MKV/18.1GB] [4K足球賽]2016年法國歐洲杯半決賽(2016-07-07)[2160P/MKV/18.1GB] [4K足球賽]2016年法國歐洲杯半決賽(2016-07-07)[2160P/MKV/18.1GB] [4K足球賽]2016年法國歐洲杯半決賽(2016-07-07)[2160P/MKV/18.1GB] [4K足球賽]2016年法國歐洲杯半決賽(2016-07-07)[2160P/MKV/18.1GB] [4K足球賽]2016年法國歐洲杯半決賽(2016-07-07)[2160P/MKV/18.1GB] [4K足球賽]2016年法國歐洲杯半決賽(2016-07-07)[2160P/MKV/18.1GB] [4K足球賽]2016年法國歐洲杯半決賽(2016-07-07)[2160P/MKV/18.1GB] [4K足球賽]2016年法國歐洲杯半決賽(2016-07-07)[2160P/MKV/18.1GB] [4K足球賽]2016年法國歐洲杯半決賽(2016-07-07)[2160P/MKV/18.1GB] [4K足球賽]2016年法國歐洲杯半決賽(2016-07-07)[2160P/MKV/18.1GB] [4K足球賽]2016年法國歐洲杯半決賽(2016-07-07)[2160P/MKV/18.1GB] [4K足球賽]2016年法國歐洲杯半決賽(2016-07-07)[2160P/MKV/18.1GB] [4K足球賽]2016年法國歐洲杯半決賽(2016-07-07)[2160P/MKV/18.1GB] [4K足球賽]2016年法國歐洲杯半決賽(2016-07-07)[2160P/MKV/18.1GB] [4K足球賽]2016年法國歐洲杯半決賽(2016-07-07)[2160P/MKV/18.1GB] [4K足球賽]2016年法國歐洲杯半決賽(2016-07-07)[2160P/MKV/18.1GB]
建議使用極速迅雷來高速下載!最高峰值12MB
(高速下載只針對MKV版的種子!新增的TS版種子速度不是很穩定!網友需耐心!)
播放器: Potplaye/MPC-HC

[MKV/18.1GB]BT種子文件下載
游客,如果您要查看本帖隱藏內容請回復

[TS/33.60GB]BT種子文件下載
游客,如果您要查看本帖隱藏內容請回復


分享到:  QQ好友和群QQ好友和群
2#
2016-7-8 05:43:54
支持樓主,4K123有你更精彩!
TV應用下載
3#
2016-7-8 06:06:50
小手一抖,資源拿走。不要想念我小伙們
4#
2016-7-8 06:44:21
現在越來越牛逼了,第一時間就有下載了
5#
2016-7-8 07:00:31
小手一抖,資源拿走。不要想念我小伙們
6#
2016-7-8 07:16:02
這速度真快,才結束沒幾個小時
7#
2016-7-8 07:16:35
小手一抖,資源拿走。不要想念我小伙們
8#
2016-7-8 07:30:17
謝謝樓主
9#
2016-7-8 07:39:27
真是難得給力的資源啊。
10#
2016-7-8 07:56:32
我家4K電視又可以炫機了,動作夠快,謝謝分享
您需要登錄后才可以回帖 登錄 | 注冊
當貝
3d试机号今天开机号表